Quote:
Format : AVI
Format/Info : Audio Video Interleave
File size : 223 MiB
Duration : 24mn 7s
Overall bit rate : 1 295 Kbps
Writing application : VirtualDubMod 1.5.10.2 (build 2540/release)
Writing library : VirtualDubMod build 2540/release

Video
ID : 0
Format : MPEG-4 Visual
Format profile : Advanced Simple@L5
Format settings, BVOP : 3
Format settings, QPel : No
Format settings, GMC : No warppoints
Format settings, Matrix : Default (H.263)
Codec ID : XVID
Codec ID/Hint : XviD
Duration : 24mn 7s
Bit rate : 1 157 Kbps
Width : 704 pixels
Height : 400 pixels
Display aspect ratio : 16:9
Frame rate : 23.976 fps
Color space : YUV
Chroma subsampling : 4:2:0
Bit depth : 8 bits
Scan type : Progressive
Compression mode : Lossy
Bits/(Pixel*Frame) : 0.171
Stream size : 200 MiB (89%)
Writing library : XviD 1.2.0SMP (UTC 2006-01-08)

Audio
ID : 1
Format : MPEG Audio
Format version : Version 1
Format profile : Layer 3
Mode : Joint stereo
Mode extension : MS Stereo
Codec ID : 55
Codec ID/Hint : MP3
Duration : 24mn 7s
Bit rate mode : Constant
Bit rate : 128 Kbps
Channel(s) : 2 channels
Sampling rate : 48.0 KHz
Compression mode : Lossy
Delay relative to video : 8s 100ms
Stream size : 22.1 MiB (10%)
Alignment : Split accross interleaves
Interleave, duration : 42 ms (1.00 video frame)
Interleave, preload duration : 500 ms
Writing library : LAME3.96

Quote:
When two doors are discovered in an ancient ruin, the gateways to shinkai, the realm of the shinzoku (Gods) and makai, the realm of the mazoku (Demons) are irreversably opened. The races of human, shinzoku, and mazoku come together in the mortal world and nothing will ever be the same. One day, two new families move next door to a boy who had previously been living a very peaceful life. In one house lived the family of the King of the Gods, and in the other lived the family of the King of the Demons. Both families had one daughter whose single wish to live next to the boy they had fallen in love with years ago has just been fulfilled. Also living with the boy is his childhood friend. With these three girls vying for his affections, the boy finds that his new life filled with despair, jealousy, and just a little hope is beginning.
Genres: comedy, drama, fantasy, romance, ecchi, fanservice, harem, recap
Languages: Japanese
Subbing: English


FileFactory.com
Code:
http://www.filefactory.com/file/b25g...ories_-_12.mkv
http://www.filefactory.com/file/5wvb...ories_-_11.mkv
http://www.filefactory.com/file/6ish...ories_-_10.mkv
http://www.filefactory.com/file/ir73...ories_-_09.mkv
http://www.filefactory.com/file/72a0...ories_-_08.mkv
http://www.filefactory.com/file/7dfx...ories_-_07.mkv
http://www.filefactory.com/file/2p8v...ories_-_06.mkv
http://www.filefactory.com/file/ak1p...ories_-_05.mkv
http://www.filefactory.com/file/21ff...ories_-_04.avi
http://www.filefactory.com/file/6stu...ories_-_03.avi
http://www.filefactory.com/file/5lon...ories_-_02.avi
http://www.filefactory.com/file/2zhj...ories_-_01.avi


لتحميل الحلقات مترجمة عربي اضغط هنا
</ul>








http://www.roro30.com/vb